DJ-Daz - My Mixes

Share the mix
Post Reply
User avatar
DJ-Daz
Site Admin
Posts: 159
Joined: Tue Nov 03, 2020 2:16 pm

Starting with the latest.



https://www.mixcloud.com/DJ_Dazbo/
https://gallery.dj-daz.com
if Americans knew how the American government treats Americans, it would go to war with America to liberate Americans from America

Tags:
User avatar
DJ-Daz
Site Admin
Posts: 159
Joined: Tue Nov 03, 2020 2:16 pm

This is more or less the same set as above, but it has a few clashing genres removed. I'm also going to use this as a dedicated set to practice with.
One of the things you'll learn as a DJ is to make 30 minute or 60 minute long sets. These mean you'll practice with these songs only, use various mixing techniques, and you'll really listen to these tracks to create the most amazing and seamless mix possible. These should showcase your knowledge of music.

More than anything, it's about learning what technique is best applied, where and when, and what songs fit together.

I'd go as far as saying this could be my best mix yet.
https://www.mixcloud.com/DJ_Dazbo/
https://gallery.dj-daz.com
if Americans knew how the American government treats Americans, it would go to war with America to liberate Americans from America
User avatar
DJ-Daz
Site Admin
Posts: 159
Joined: Tue Nov 03, 2020 2:16 pm

Shiny Disco Balls
Shiny Disco Balls.mp3
(55.08 MiB) Downloaded 52 times
Mixcloud
https://www.mixcloud.com/DJ_Dazbo/
https://gallery.dj-daz.com
if Americans knew how the American government treats Americans, it would go to war with America to liberate Americans from America
User avatar
DJ-Daz
Site Admin
Posts: 159
Joined: Tue Nov 03, 2020 2:16 pm

Naughties and Noobies.
01 REC-2021-01-31.cue
(3.75 KiB) Downloaded 24 times
TRACK 01 AUDIO
TITLE "Infinity (Jude & Frank Extended Remix)"
PERFORMER "Cat Dealers, Beowülf"
FILE "H:/Beatport/House/11317755_Infinity_Jude___Frank_Extended_Remix.mp3" WAVE
INDEX 01 00:00:00
TRACK 02 AUDIO
] TITLE "Dub Be Good To Me (Raiwa Remix)"
PERFORMER "Beats International"
FILE "H:/Beatport/Funky House/01 Dub Be Good To Me (Raiwa Remix).m4a" WAVE
INDEX 01 00:02:10
TRACK 03 AUDIO
TITLE "Infinity (Jude & Frank Extended Remix)"
PERFORMER "Cat Dealers, Beowülf"
FILE "H:/Beatport/House/11317755_Infinity_Jude___Frank_Extended_Remix.mp3" WAVE
INDEX 01 00:02:29
TRACK 04 AUDIO
TITLE "Dub Be Good To Me (Raiwa Remix)"
PERFORMER "Beats International"
FILE "H:/Beatport/Funky House/01 Dub Be Good To Me (Raiwa Remix).m4a" WAVE
INDEX 01 00:03:43
TRACK 05 AUDIO
TITLE "I Like To Move It - Radio Edit - Reel 2 Real Feat The Mad Stuntman"
PERFORMER "Reel 2 Real Feat The Mad Stuntman"
FILE "H:/Old School/Reel 2 Real Feat The Mad Stuntman - I Like To Move It - Radio Edit - Reel 2 Real Feat The Mad Stuntman.mp3" WAVE
INDEX 01 00:05:49
TRACK 06 AUDIO
TITLE "Drop The Pressure (Extended Version)"
PERFORMER "Mylo, Claptone"
FILE "H:/Beatport/House/13224643_Drop_The_Pressure_Extended_Version.mp3" WAVE
INDEX 01 00:09:26
TRACK 07 AUDIO
TITLE "Hide U (Mischa Daniels Dancefloor Mode)"
PERFORMER "Sian Kosheen, Roger Shah"
FILE "H:/Beatport/Competition #1/2093269_Hide U_(Mischa Daniels Dancefloor Mode).mp3" WAVE
INDEX 01 00:12:13
TRACK 08 AUDIO
TITLE "WET (Original Mix)"
PERFORMER "Wax Motif"
FILE "H:/Beatport/House/12079013_WET_Original_Mix.mp3" WAVE
INDEX 01 00:14:30
TRACK 09 AUDIO
TITLE "Music Sounds Better With You (Original Mix)"
PERFORMER "Stardust"
FILE "H:/Beatport/House/12247392_Music Sounds Better With You_(Original Mix).mp3" WAVE
INDEX 01 00:18:50
TRACK 10 AUDIO
TITLE "Naked In the Rain (Club Mix)"
PERFORMER "Tyrrell, Blue Pearl"
FILE "H:/Beatport/House/1223516_Naked_In_the_Rain_Club_Mix.mp3" WAVE
INDEX 01 00:22:29
TRACK 11 AUDIO
TITLE "Music Sounds Better With You (Original Mix)"
PERFORMER "Stardust"
FILE "H:/Beatport/House/12247392_Music Sounds Better With You_(Original Mix).mp3" WAVE
INDEX 01 00:23:04
TRACK 12 AUDIO
TITLE "Move It 2 the Drum (Exodus & Luca Testa Extended Remix)"
PERFORMER "Ambush, Chuckie, Hardwell"
FILE "H:/Beatport/Electro House/12540646_Move_It_2_the_Drum_Exodus___Luca_Testa_Extended_Remix.mp3" WAVE
INDEX 01 00:25:56
TRACK 13 AUDIO
TITLE "Put 'Em High (JJ's Club Mix) [feat. Therese]"
PERFORMER "StoneBridge"
FILE "H:/Pacha Ibiza Classics/12 Put 'Em High (JJ's Club Mix) [fea.m4a" WAVE
INDEX 01 00:28:57
TRACK 14 AUDIO
TITLE "Anthem"
PERFORMER "N-Joi"
FILE "H:/Old Skool Ravers - Ministry of Sound/07 Anthem.m4a" WAVE
INDEX 01 00:32:28
TRACK 15 AUDIO
TITLE "Zombie Nation (Original Mix)"
PERFORMER "Konig Pry"
FILE "H:/Beatport/House/13784618_Zombie_Nation_Original_Mix.mp3" WAVE
INDEX 01 00:35:41
TRACK 16 AUDIO
TITLE "Bassface (Original Mix)"
PERFORMER "A*S*Y*S"
FILE "H:/Beatport/Techno/12305445_Bassface_Original_Mix.mp3" WAVE
INDEX 01 00:38:07
TRACK 17 AUDIO
TITLE "Zombie Nation (Original Mix)"
PERFORMER "Konig Pry"
FILE "H:/Beatport/House/13784618_Zombie_Nation_Original_Mix.mp3" WAVE
INDEX 01 00:38:11
TRACK 18 AUDIO
TITLE "Open Your Mind 007"
PERFORMER "U.S.U.R.A."
FILE "H:/Old School/12_-_Open_Your_Mind_007.mp3" WAVE
INDEX 01 00:41:07
TRACK 19 AUDIO
TITLE "phat planet"
PERFORMER "leftfield"
FILE "H:/Old School/Leftfield - Phat Planet.MP3" WAVE
INDEX 01 00:44:10
https://www.mixcloud.com/DJ_Dazbo/
https://gallery.dj-daz.com
if Americans knew how the American government treats Americans, it would go to war with America to liberate Americans from America
User avatar
DJ-Daz
Site Admin
Posts: 159
Joined: Tue Nov 03, 2020 2:16 pm

Awesome little mash-up


I got a little carried away in the middle, but it was on the fly and completely unrehearsed.
https://www.mixcloud.com/DJ_Dazbo/
https://gallery.dj-daz.com
if Americans knew how the American government treats Americans, it would go to war with America to liberate Americans from America
User avatar
DJ-Daz
Site Admin
Posts: 159
Joined: Tue Nov 03, 2020 2:16 pm

https://www.mixcloud.com/DJ_Dazbo/
https://gallery.dj-daz.com
if Americans knew how the American government treats Americans, it would go to war with America to liberate Americans from America
User avatar
DJ-Daz
Site Admin
Posts: 159
Joined: Tue Nov 03, 2020 2:16 pm

This might just be my finest hour
https://www.mixcloud.com/DJ_Dazbo/
https://gallery.dj-daz.com
if Americans knew how the American government treats Americans, it would go to war with America to liberate Americans from America
Post Reply